韩国首尔Seoul Motorcycle Show摩托车车展-美艳车模04高清4K下载作者:逍遥

韩国首尔Seoul Motorcycle Show摩托车车展-美艳车模04


   General

   Format                         : MPEG-4

   Format profile                 : Base Media

   Codec ID                       : isom (isom/iso2/avc1/mp41)

   File size                      : 340 MiB

   Duration                       : 2 min 21 s

   Overall bit rate               : 20.1 Mb/s

   Writing application            : Lavf57.2.100


   Video

   ID                             : 1

   Format                         : AVC

   Format/Info                    : Advanced Video Codec

   Format profile                 : High@L5.1

   Format settings                : 2 Ref Frames

   Format settings, CABAC         : No

   Format settings, ReFrames      : 2 frames

   Codec ID                       : avc1

   Codec ID/Info                  : Advanced Video Coding

   Duration                       : 2 min 21 s

   Bit rate                       : 19.9 Mb/s

   Width                          : 3 840 pixels

   Height                         : 2 160 pixels

   Display aspect ratio           : 16:9

   Frame rate mode                : Constant

   Frame rate                     : 29.970 (30000/1001) FPS

   Color space                    : YUV

   Chroma subsampling             : 4:2:0

   Bit depth                      : 8 bits

   Scan type                      : Progressive

   Bits/(Pixel*Frame)             : 0.080

   Stream size                    : 337 MiB (99%)

   Color range                    : Limited

   Color primaries                : BT.709

   Transfer characteristics       : BT.709

   Matrix coefficients            : BT.709


   Audio

   ID                             : 2

   Format                         : AAC

   Format/Info                    : Advanced Audio Codec

   Format profile                 : LC

   Codec ID                       : mp4a-40-2

   Duration                       : 2 min 21 s

   Bit rate mode                  : Constant

   Bit rate                       : 126 kb/s

   Channel(s)                     : 2 channels

   Channel positions              : Front: L R

   Sampling rate                  : 44.1 kHz

   Frame rate                     : 43.066 FPS (1024 SPF)

   Compression mode               : Lossy

   Stream size                    : 2.12 MiB (1%)

   Default                        : Yes

   Alternate group                : 1


韩国首尔Seoul Motorcycle Show摩托车车展-美艳车模04


韩国首尔Seoul Motorcycle Show摩托车车展-美艳车模04


韩国首尔Seoul Motorcycle Show摩托车车展-美艳车模04


韩国首尔Seoul Motorcycle Show摩托车车展-美艳车模04


韩国首尔Seoul Motorcycle Show摩托车车展-美艳车模04


点击进入下载页面:

韩国首尔Seoul Motorcycle Show摩托车车展-美艳车模04 335MB

压缩包解压提取密码:moviewg.com

欢迎微信扫码关注我们~

点击访问「我爱UHD社区」sns.woaiuhd.com

时间:2018-9-23 分类:MV\其它 标签:

亲,你怎么看?


    46.83ms