SONY索尼相机展模特摄影-洪智妍4K高清下载作者:逍遥

SONY索尼相机展模特摄影-洪智妍


   General

   Format                         : MPEG-4

   Format profile                 : Base Media

   Codec ID                       : isom (isom/iso2/avc1/mp41)

   File size                      : 259 MiB

   Duration                       : 2 min 10 s

   Overall bit rate               : 16.7 Mb/s

   Writing application            : Lavf57.2.100


   Video

   ID                             : 1

   Format                         : AVC

   Format/Info                    : Advanced Video Codec

   Format profile                 : High@L5.1

   Format settings                : 2 Ref Frames

   Format settings, CABAC         : No

   Format settings, ReFrames      : 2 frames

   Codec ID                       : avc1

   Codec ID/Info                  : Advanced Video Coding

   Duration                       : 2 min 10 s

   Bit rate                       : 16.5 Mb/s

   Width                          : 3 840 pixels

   Height                         : 2 160 pixels

   Display aspect ratio           : 16:9

   Frame rate mode                : Constant

   Frame rate                     : 29.970 (30000/1001) FPS

   Color space                    : YUV

   Chroma subsampling             : 4:2:0

   Bit depth                      : 8 bits

   Scan type                      : Progressive

   Bits/(Pixel*Frame)             : 0.066

   Stream size                    : 257 MiB (99%)

   Color range                    : Limited

   Color primaries                : BT.709

   Transfer characteristics       : BT.709

   Matrix coefficients            : BT.709


   Audio

   ID                             : 2

   Format                         : AAC

   Format/Info                    : Advanced Audio Codec

   Format profile                 : LC

   Codec ID                       : mp4a-40-2

   Duration                       : 2 min 10 s

   Bit rate mode                  : Constant

   Bit rate                       : 126 kb/s

   Channel(s)                     : 2 channels

   Channel positions              : Front: L R

   Sampling rate                  : 44.1 kHz

   Frame rate                     : 43.066 FPS (1024 SPF)

   Compression mode               : Lossy

   Stream size                    : 1.95 MiB (1%)

   Default                        : Yes

   Alternate group                : 1


SONY索尼相机展模特摄影-洪智妍


SONY索尼相机展模特摄影-洪智妍


SONY索尼相机展模特摄影-洪智妍


SONY索尼相机展模特摄影-洪智妍


SONY索尼相机展模特摄影-洪智妍


点击进入下载页面:

SONY索尼相机展模特摄影-洪智妍4K 256MB

压缩包解压提取密码:moviewg.com

欢迎微信扫码关注我们~

点击访问「我爱UHD社区」sns.woaiuhd.com

时间:2018-9-30 分类:MV\其它 标签:

亲,你怎么看?


    40.88ms